<?xml version="1.0" standalone="no"?>
<!DOCTYPE svg PUBLIC "-//W3C//DTD SVG 1.1//EN" "http://www.w3.org/Graphics/SVG/1.1/DTD/svg11.dtd" >
<svg xmlns="http://www.w3.org/2000/svg">
<metadata>Generated by IcoMoon</metadata>
<defs>
<font id="icomoon" horiz-adv-x="1024">
<font-face units-per-em="1024" ascent="960" descent="-64" />
<missing-glyph horiz-adv-x="1024" />
<glyph unicode="&#x20;" horiz-adv-x="512" d="" />
<glyph unicode="&#xe900;" glyph-name="arrow-right-sm" d="M525.487 657.839c12.796 12.189 33.054 11.695 45.239-1.103l177.779-186.668c11.772-12.356 11.772-31.778 0-44.134l-177.779-186.667c-12.186-12.8-32.444-13.295-45.239-1.105-12.8 12.19-13.291 32.444-1.105 45.239l126.285 132.599h-352c-17.673 0-32 14.327-32 32s14.327 32 32 32h352l-126.285 132.598c-12.186 12.797-11.695 33.053 1.105 45.241z" />
<glyph unicode="&#xe901;" glyph-name="arrow-down-contained-02" d="M760.9 696.902c-137.463 137.465-360.337 137.465-497.802 0s-137.465-360.338 0-497.802c137.464-137.468 360.338-137.468 497.802 0 137.468 137.463 137.468 360.337 0 497.802zM217.844 742.156c162.458 162.458 425.856 162.458 588.313 0s162.458-425.856 0-588.313c-162.458-162.458-425.855-162.458-588.313 0s-162.458 425.855 0 588.313zM512 649.705c17.673 0 32-14.327 32-32v-271.094l117.218 97.685c13.577 11.315 33.758 9.481 45.069-4.096 11.315-13.577 9.481-33.754-4.096-45.069l-169.707-141.423c-11.866-9.89-29.103-9.89-40.973 0l-169.705 141.423c-13.577 11.315-15.411 31.492-4.097 45.069s31.492 15.411 45.069 4.096l117.222-97.685v271.094c0 17.673 14.327 32 32 32z" />
<glyph unicode="&#xe903;" glyph-name="arrow-left" d="M477.163 769.839c12.8-12.188 13.295-32.444 1.105-45.241l-232.95-244.598h607.999c17.673 0 32-14.327 32-32s-14.327-32-32-32h-607.999l232.95-244.599c12.19-12.796 11.695-33.050-1.105-45.239-12.796-12.19-33.050-11.695-45.239 1.105l-284.445 298.667c-11.77 12.356-11.77 31.778 0 44.134l284.445 298.668c12.19 12.798 32.444 13.292 45.239 1.103z" />
<glyph unicode="&#xe904;" glyph-name="arrow-right-contained-01" d="M512 800c-194.404 0-352-157.596-352-352 0-194.402 157.596-352 352-352 194.402 0 352 157.598 352 352 0 194.404-157.598 352-352 352zM96 448c0 229.751 186.249 416 416 416s416-186.249 416-416c0-229.751-186.249-416-416-416s-416 186.249-416 416zM443.49 650.802c13.577 11.314 33.754 9.48 45.069-4.097l141.423-169.708c9.89-11.866 9.89-29.103 0-40.969l-141.423-169.707c-11.315-13.581-31.492-15.411-45.069-4.1-13.577 11.315-15.411 31.492-4.096 45.069l124.348 149.222-124.348 149.221c-11.315 13.577-9.481 33.755 4.096 45.069z" />
<glyph unicode="&#xe905;" glyph-name="arrow-right" d="M546.82 769.839c12.796 12.189 33.054 11.695 45.239-1.103l284.446-298.668c11.772-12.356 11.772-31.778 0-44.134l-284.446-298.667c-12.186-12.8-32.444-13.295-45.239-1.105-12.8 12.19-13.291 32.444-1.105 45.239l232.951 244.599h-608c-17.673 0-32 14.327-32 32s14.327 32 32 32h608l-232.951 244.598c-12.186 12.797-11.695 33.053 1.105 45.241z" />
<glyph unicode="&#xe906;" glyph-name="arrow-up-contained-02" d="M760.9 696.902c-137.463 137.465-360.337 137.465-497.802 0s-137.465-360.338 0-497.802c137.464-137.468 360.338-137.468 497.802 0 137.468 137.463 137.468 360.337 0 497.802zM217.844 742.156c162.458 162.458 425.856 162.458 588.313 0s162.458-425.856 0-588.313c-162.458-162.458-425.855-162.458-588.313 0s-162.458 425.855 0 588.313zM491.511 642.291c11.87 9.889 29.107 9.889 40.973 0l169.707-141.423c13.577-11.315 15.411-31.492 4.096-45.069-11.311-13.577-31.492-15.411-45.069-4.096l-117.218 97.683v-271.093c0-17.673-14.327-32-32-32s-32 14.327-32 32v271.093l-117.222-97.683c-13.577-11.315-33.755-9.481-45.069 4.096s-9.48 33.754 4.097 45.069l169.705 141.423z" />
<glyph unicode="&#xe907;" glyph-name="arrow-up-right-sm" d="M361.54 619.117c0.249 17.671 14.776 31.795 32.448 31.546l285.112-4.015c17.323-0.244 31.305-14.226 31.548-31.546l4.015-285.113c0.252-17.673-13.875-32.201-31.543-32.448-17.673-0.247-32.201 13.875-32.448 31.548l-2.948 209.378-283.762-283.759c-12.497-12.497-32.758-12.497-45.255 0s-12.497 32.755 0 45.252l283.76 283.761-209.379 2.949c-17.672 0.249-31.795 14.776-31.546 32.448z" />
<glyph unicode="&#xe908;" glyph-name="arrow-up-sm" d="M489.933 684.506c12.356 11.77 31.778 11.77 44.134 0l186.667-177.779c12.8-12.186 13.295-32.444 1.105-45.239-12.19-12.8-32.444-13.291-45.239-1.105l-132.599 126.285v-352c0-17.673-14.327-32-32-32s-32 14.327-32 32v352l-132.598-126.285c-12.797-12.186-33.053-11.695-45.241 1.105-12.189 12.796-11.695 33.054 1.103 45.239l186.668 177.779z" />
<glyph unicode="&#xe909;" glyph-name="arrow-up" d="M489.933 812.506c12.356 11.77 31.778 11.77 44.134 0l298.667-284.446c12.8-12.186 13.295-32.444 1.105-45.239-12.19-12.8-32.444-13.291-45.239-1.105l-244.599 232.951v-608c0-17.673-14.327-32-32-32s-32 14.327-32 32v608l-244.598-232.951c-12.797-12.186-33.053-11.695-45.241 1.105-12.189 12.796-11.695 33.054 1.103 45.239l298.668 284.446z" />
<glyph unicode="&#xe90a;" glyph-name="back-to-top" d="M512.051 32c17.673 0 32 14.327 32 32v436.348l156.727-144.986c12.975-12.002 33.22-11.217 45.222 1.758 12.002 12.971 11.213 33.22-1.762 45.218l-210.458 194.697c-12.262 11.347-31.194 11.347-43.46 0l-210.458-194.697c-12.973-11.998-13.761-32.247-1.759-45.218 12.001-12.975 32.247-13.76 45.221-1.758l156.726 144.986v-436.348c0-17.673 14.327-32 32-32zM883.298 692.762c6.204 16.548-2.18 34.993-18.726 41.199l-341.282 128c-7.245 2.717-15.228 2.717-22.473 0.001l-341.384-128c-16.548-6.205-24.933-24.649-18.729-41.198s24.649-24.933 41.198-18.729l330.149 123.787 330.044-123.786c16.55-6.206 34.995 2.177 41.203 18.724z" />
<glyph unicode="&#xe90b;" glyph-name="bullet-number" d="M497.783 277.333h-69.888v307.627l-65.108-67.499-40.619 42.411 114.687 115.883h60.928v-398.421zM640 490.667h85.333v-85.333h-85.333v85.333z" />
<glyph unicode="&#xe90c;" glyph-name="bullet-square" d="M426.667 533.333h170.667v-170.667h-170.667v170.667z" />
<glyph unicode="&#xe90d;" glyph-name="check-01" d="M739.362 624.29c12.535-12.462 12.591-32.723 0.128-45.255l-305.472-307.202c-6.007-6.037-14.172-9.434-22.69-9.434s-16.685 3.396-22.691 9.434l-104.127 104.717c-12.462 12.531-12.404 32.794 0.128 45.257 12.532 12.459 32.793 12.403 45.255-0.128l81.436-81.899 282.782 284.382c12.463 12.532 32.721 12.589 45.252 0.128z" />
<glyph unicode="&#xe90e;" glyph-name="check-contained" d="M96 448c0 229.751 186.249 416 416 416s416-186.249 416-416c0-229.751-186.249-416-416-416s-416 186.249-416 416zM512 800c-194.404 0-352-157.596-352-352 0-194.402 157.596-352 352-352 194.402 0 352 157.598 352 352 0 194.404-157.598 352-352 352zM668.685 556.687c12.497-12.497 12.497-32.757 0-45.254l-182.059-182.059c-12.497-12.497-32.755-12.497-45.252 0l-62.060 62.059c-12.497 12.497-12.497 32.755 0 45.252s32.758 12.497 45.255 0l39.431-39.428 159.433 159.43c12.497 12.497 32.755 12.497 45.252 0z" />
<glyph unicode="&#xe90f;" glyph-name="chevron-down" d="M275.068 554.946c11.936 13.033 32.178 13.922 45.211 1.986l191.75-175.616 191.689 175.612c13.030 11.939 33.271 11.053 45.21-1.978s11.055-33.273-1.98-45.211l-213.295-195.413c-12.233-11.204-30.997-11.209-43.23-0.004l-213.369 195.413c-13.033 11.938-13.922 32.178-1.986 45.211z" />
<glyph unicode="&#xe910;" glyph-name="chevron-left" d="M361.373 425.374c-12.497 12.497-12.497 32.755 0 45.252l213.335 213.335c12.497 12.497 32.755 12.497 45.252 0s12.497-32.758 0-45.255l-190.703-190.706 190.703-190.707c12.497-12.497 12.497-32.755 0-45.252s-32.755-12.497-45.252 0l-213.335 213.333z" />
<glyph unicode="&#xe911;" glyph-name="chevron-right" d="M672 448c0-8.486-3.371-16.627-9.374-22.626l-213.333-213.333c-12.497-12.497-32.757-12.497-45.254 0s-12.497 32.755 0 45.252l190.704 190.707-190.704 190.706c-12.497 12.497-12.497 32.758 0 45.255s32.756 12.497 45.254 0l213.333-213.335c6.003-5.999 9.374-14.14 9.374-22.626z" />
<glyph unicode="&#xe912;" glyph-name="chevron-up" d="M490.415 556.924c12.233 11.214 31.010 11.213 43.247-0.003l213.295-195.559c13.030-11.942 13.905-32.188 1.963-45.214s-32.183-13.905-45.21-1.963l-191.68 175.74-191.741-175.74c-13.029-11.942-33.271-11.059-45.212 1.967-11.941 13.030-11.060 33.271 1.969 45.214l213.37 195.558z" />
<glyph unicode="&#xe913;" glyph-name="clock-forward" d="M480 800c-194.404 0-352-157.596-352-352 0-194.402 157.596-352 352-352 130.249 0 244.019 70.729 304.93 176.021 8.849 15.3 28.425 20.527 43.721 11.678 15.3-8.849 20.527-28.425 11.678-43.721-71.881-124.262-206.31-207.979-360.329-207.979-229.751 0-416 186.249-416 416s186.249 416 416 416c219.132 0 398.694-169.434 414.822-384.444l33.207 33.212c12.497 12.497 32.759 12.497 45.257 0s12.497-32.759 0-45.257l-96-96c-12.497-12.497-32.759-12.497-45.257 0l-96 96c-12.497 12.497-12.497 32.759 0 45.257s32.759 12.497 45.257 0l50.428-50.428c-7.522 187.755-162.112 337.66-351.714 337.66zM480 632.71c17.673 0 32-14.327 32-32v-177.644l122.121-40.708c16.764-5.589 25.826-23.71 20.237-40.478-5.589-16.764-23.71-25.826-40.478-20.237l-144 48c-13.065 4.356-21.879 16.585-21.879 30.357v200.71c0 17.673 14.327 32 32 32z" />
<glyph unicode="&#xe914;" glyph-name="coin-broken" d="M623.744 825.599c-63.898 0-122.458-22.499-168.307-60.038-13.675-11.195-33.837-9.186-45.033 4.489s-9.186 33.836 4.489 45.032c56.868 46.558 129.636 74.518 208.851 74.518 182.191 0 329.89-147.697 329.89-329.891 0-79.179-27.934-151.917-74.453-208.775-11.191-13.675-31.351-15.693-45.030-4.501s-15.693 31.351-4.506 45.030c37.508 45.841 59.989 104.375 59.989 168.246 0 146.848-119.044 265.891-265.89 265.891zM400.256 602.181c-146.848 0-265.891-119.045-265.891-265.891s119.043-265.89 265.891-265.89c146.846 0 265.891 119.044 265.891 265.89s-119.044 265.891-265.891 265.891zM70.365 336.29c0 182.195 147.697 329.891 329.891 329.891 182.196 0 329.891-147.695 329.891-329.891s-147.695-329.89-329.891-329.89c-182.194 0-329.891 147.695-329.891 329.89z" />
<glyph unicode="&#xe915;" glyph-name="colors-01" d="M512 825.599c-133.138 0-241.068-107.93-241.068-241.067s107.93-241.066 241.068-241.066c133.137 0 241.067 107.93 241.067 241.066s-107.93 241.067-241.067 241.067zM206.933 585.401c0.469 168.084 136.872 304.198 305.067 304.198 168.192 0 304.597-136.115 305.062-304.201 101.056-49.673 170.671-153.638 170.671-273.932 0-168.486-136.585-305.067-305.067-305.067-63.172 0-121.946 19.234-170.667 52.169-48.708-32.934-107.442-52.169-170.668-52.169-168.483 0-305.066 136.585-305.066 305.067 0 120.307 69.642 224.284 170.668 273.935zM214.537 516.54c-68.636-42.53-114.271-118.498-114.271-205.073 0-133.137 107.929-241.067 241.066-241.067 124.998 0 227.777 95.138 239.873 216.951-22.234-5.158-45.402-7.885-69.205-7.885-145.114 0-266.562 101.316-297.463 237.073zM646.396 310.592c-0.226-80.742-31.817-154.103-83.23-208.542 35.209-20.143 75.972-31.65 119.501-31.65 133.137 0 241.067 107.93 241.067 241.067 0 86.583-45.658 162.56-114.274 205.073-20.629-90.633-81.617-165.918-163.063-205.948z" />
<glyph unicode="&#xe916;" glyph-name="contrast" d="M70.4 448c0 243.888 197.711 441.599 441.6 441.599 243.887 0 441.6-197.711 441.6-441.599 0-243.891-197.713-441.6-441.6-441.6-243.889 0-441.6 197.709-441.6 441.6zM512 825.599c-208.543 0-377.6-169.057-377.6-377.599s169.057-377.6 377.6-377.6c208.542 0 377.6 169.058 377.6 377.6s-169.058 377.599-377.6 377.599zM480 682.666c0 29.455 23.876 53.333 53.333 53.333 147.277 0 266.667-119.391 266.667-266.666v-42.667c0-147.277-119.39-266.667-266.667-266.667-29.457 0-53.333 23.876-53.333 53.333v469.332zM544 671.723v-447.45c106.97 5.547 192 94.042 192 202.394v42.667c0 108.351-85.030 196.843-192 202.39z" />
<glyph unicode="&#xe917;" d="M712.863 139.284c8.98-21.55 0.348-103.173-47.263-122.092s-108.442 0-108.442 0l-110.385 220.764-190.774-190.771v861.614l584.407-584.407h-217.738c10.685-20.49 78.787-157.727 90.194-185.108z" />
<glyph unicode="&#xe918;" d="M307.2 785.192v-614.399l153.6 153.6 128-256c0 0 34.627-11.049 51.2 0s33.060 33.3 25.6 51.2c-35.21 84.5-128 256-128 256h179.2l-409.6 409.599z" />
<glyph unicode="&#xe919;" glyph-name="dot" d="M682.667 448c0 94.257-76.412 170.667-170.667 170.667-94.257 0-170.667-76.41-170.667-170.667 0-94.255 76.41-170.667 170.667-170.667 94.255 0 170.667 76.412 170.667 170.667z" />
<glyph unicode="&#xe91a;" glyph-name="down-arrow-sm" d="M512 693.333c17.673 0 32-14.327 32-32v-352l132.599 126.285c12.796 12.186 33.050 11.695 45.239-1.105 12.19-12.796 11.695-33.054-1.105-45.239l-186.667-177.779c-12.356-11.772-31.778-11.772-44.134 0l-186.668 177.779c-12.798 12.186-13.292 32.444-1.103 45.239 12.188 12.8 32.444 13.291 45.241 1.105l132.598-126.285v352c0 17.673 14.327 32 32 32z" />
<glyph unicode="&#xe91b;" glyph-name="down-arrow" d="M512 821.333c17.673 0 32-14.327 32-32v-608l244.599 232.951c12.796 12.186 33.050 11.695 45.239-1.105 12.19-12.796 11.695-33.054-1.105-45.239l-298.667-284.446c-12.356-11.772-31.778-11.772-44.134 0l-298.668 284.446c-12.798 12.186-13.292 32.444-1.103 45.239 12.188 12.8 32.444 13.291 45.241 1.105l244.598-232.951v608c0 17.673 14.327 32 32 32z" />
<glyph unicode="&#xe91c;" glyph-name="download-01" d="M512.051 864c17.673 0 32-14.327 32-32v-436.348l156.727 144.988c12.975 12.001 33.22 11.214 45.222-1.76 11.998-12.971 11.213-33.221-1.762-45.219l-210.458-194.697c-12.267-11.345-31.194-11.345-43.46 0l-210.458 194.697c-12.973 11.998-13.761 32.247-1.759 45.219 12.001 12.973 32.247 13.761 45.22 1.76l156.727-144.988v436.348c0 17.673 14.327 32 32 32zM138.667 64c0 17.673 14.327 32 32 32h682.667c17.673 0 32-14.327 32-32s-14.327-32-32-32h-682.667c-17.673 0-32 14.327-32 32z" />
<glyph unicode="&#xe91d;" glyph-name="edit-02" d="M635.806 777.815c32.474 32.494 85.141 32.516 117.645 0.049l88.337-88.238c32.516-32.48 32.538-85.172 0.051-117.68l-417.012-417.238c-11.588-11.597-26.343-19.507-42.413-22.746l-186.282-37.534c-10.508-2.121-21.377 1.165-28.954 8.747s-10.855 18.453-8.732 28.962l37.603 186.061c3.241 16.038 11.138 30.763 22.704 42.334l417.055 417.282zM708.22 732.585c-7.501 7.492-19.652 7.487-27.149-0.011l-65.574-65.61 115.443-115.441 65.63 65.668c7.497 7.502 7.492 19.661-0.013 27.157l-88.337 88.238zM685.696 506.257l-115.443 115.439-306.235-306.406c-2.669-2.671-4.492-6.067-5.239-9.766l-28.058-138.837 139.051 28.015c3.709 0.747 7.114 2.573 9.788 5.252l306.137 306.304z" />
<glyph unicode="&#xe91e;" glyph-name="email" d="M96 647.111c0 71.549 56.221 131.555 128 131.555h576c71.778 0 128-60.006 128-131.555v-398.224c0-71.548-56.222-131.554-128-131.554h-576c-71.779 0-128 60.006-128 131.554v398.224zM170.295 683.919c-6.476-10.469-10.295-23.043-10.295-36.808v-398.224c0-38.417 29.741-67.554 64-67.554h576c34.261 0 64 29.137 64 67.554v398.224c0 13.765-3.819 26.339-10.295 36.808 5.372-13.357 1.173-29.143-11.042-37.914l-284.676-204.384c-27.593-19.81-64.38-19.81-91.972 0l-284.677 204.384c-12.217 8.771-16.414 24.557-11.043 37.914zM183.64 699.511c10.602 6.297 24.366 6.134 35.023-1.517l284.676-204.384c5.286-3.793 12.036-3.793 17.323 0l284.676 204.384c10.658 7.651 24.422 7.814 35.021 1.517-11.162 9.544-25.323 15.155-40.358 15.155h-576c-15.034 0-29.198-5.611-40.36-15.155z" />
<glyph unicode="&#xe91f;" glyph-name="eye-close" d="M207.773 790.627c12.497 12.497 32.758 12.497 45.255 0l640.002-640.001c12.493-12.497 12.493-32.755 0-45.252-12.497-12.497-32.759-12.497-45.257 0l-87.706 87.701c-0.149-0.098-0.303-0.196-0.457-0.294-63.791-40.695-145.574-69.129-248.132-67.452-167.106 2.731-277.477 80.038-345.359 156.356-33.765 37.965-57.069 75.682-71.968 103.957-7.465 14.165-12.864 26.039-16.443 34.513-1.791 4.237-3.13 7.629-4.047 10.035-0.459 1.207-0.812 2.167-1.065 2.863l-0.303 0.845-0.095 0.273-0.034 0.098-0.013 0.038c-0.006 0.017-0.011 0.030 30.247 10.445-30.537 9.562-30.534 9.574-30.531 9.583l0.008 0.026 0.019 0.060 0.051 0.162 0.153 0.474 0.518 1.562c0.441 1.306 1.074 3.136 1.911 5.436 1.674 4.604 4.166 11.106 7.568 19.106 6.796 15.987 17.265 38.071 32.149 63.013 28.484 47.733 73.74 106.933 141.297 153.428l-47.771 47.771c-12.497 12.497-12.497 32.758 0 45.255zM301.588 651.558c-0.788-0.628-1.613-1.226-2.473-1.789-61.757-40.386-103.494-94.127-129.909-138.393-13.158-22.050-22.351-41.476-28.208-55.253-1.778-4.181-3.244-7.834-4.416-10.867 0.026-0.064 0.053-0.124 0.079-0.188 2.954-6.989 7.586-17.207 14.111-29.589 13.080-24.823 33.591-58.001 63.17-91.26 58.805-66.116 153.235-132.523 298.582-134.899 83.059-1.361 148.975 19.776 201.015 50.287l-111.386 111.386c-0.414-0.397-0.841-0.789-1.284-1.169-23.744-20.51-54.921-32.883-88.87-32.883-73.395 0-134.399 58.121-134.399 131.644 0 33.626 12.905 64.265 33.898 87.407 0.908 1.001 1.865 1.932 2.865 2.791l-112.775 112.776zM459.49 493.658c-0.192-0.222-0.388-0.444-0.589-0.666-10.871-11.985-17.301-27.494-17.301-44.407 0-36.54 30.69-67.644 70.4-67.644 17.114 0 32.653 5.833 44.766 15.437l-97.276 97.28zM102.401 444.753l-30.537 9.562-3.142-10.035 3.421-9.941 30.258 10.415zM512 710.4c-16.631 0-32.542-0.879-47.761-2.524-17.57-1.9-33.353 10.804-35.251 28.375-1.903 17.571 10.803 33.355 28.373 35.255 17.54 1.897 35.75 2.895 54.639 2.895 169.762 0 280.499-80.383 347.895-160.175 33.506-39.671 56.393-79.232 70.929-108.876 7.287-14.857 12.518-27.324 15.974-36.203 1.728-4.446 3.017-8 3.895-10.517 0.439-1.259 0.777-2.261 1.015-2.987l0.286-0.879 0.090-0.277 0.030-0.098 0.013-0.038c0.004-0.017 0.013-0.034-30.528-9.596 30.37-10.086 30.37-10.091 30.366-10.099l-0.013-0.038-0.021-0.068-0.064-0.183-0.188-0.55c-0.158-0.452-0.371-1.062-0.644-1.83-0.55-1.532-1.344-3.682-2.398-6.383-2.099-5.402-5.235-13.022-9.515-22.332-8.546-18.59-21.73-44.066-40.457-72.102-9.818-14.694-29.687-18.65-44.386-8.832-14.694 9.818-18.65 29.687-8.832 44.382 16.521 24.738 28.113 47.168 35.524 63.287 2.748 5.969 4.907 11.055 6.528 15.044-0.111 0.29-0.226 0.589-0.346 0.892-2.876 7.394-7.398 18.185-13.794 31.232-12.83 26.163-33.015 61.015-62.362 95.756-58.304 69.032-152.371 137.473-298.999 137.473zM921.6 444.753l30.37-10.086 3.255 9.796-3.085 9.852-30.541-9.562z" />
<glyph unicode="&#xe920;" glyph-name="eye-open" d="M136.582 443.426c0.087 0.226 0.175 0.452 0.265 0.683 2.878 7.398 7.397 18.185 13.794 31.232 12.829 26.163 33.017 61.016 62.361 95.757 58.307 69.032 152.373 137.473 298.999 137.473 146.628 0 240.695-68.441 298.999-137.473 29.346-34.741 49.532-69.594 62.362-95.757 6.396-13.047 10.918-23.834 13.794-31.232 0.119-0.303 0.235-0.597 0.346-0.892-0.098-0.243-0.201-0.491-0.303-0.742-2.965-7.253-7.612-17.83-14.148-30.609-13.107-25.617-33.626-59.699-63.177-93.517-58.718-67.204-152.691-133.227-297.348-130.859-145.347 2.377-239.777 68.783-298.582 134.899-29.579 33.259-50.090 66.436-63.17 91.26-6.525 12.382-11.157 22.601-14.111 29.589-0.026 0.064-0.053 0.124-0.079 0.188zM921.6 442.923c30.541 9.562 30.532 9.579 30.528 9.596l-0.013 0.038-0.030 0.098-0.090 0.282-0.286 0.875c-0.239 0.725-0.576 1.728-1.015 2.987-0.879 2.517-2.167 6.076-3.895 10.517-3.456 8.879-8.687 21.346-15.974 36.203-14.537 29.645-37.423 69.206-70.929 108.877-67.396 79.792-178.133 160.176-347.895 160.176s-280.496-80.384-347.892-160.176c-33.508-39.671-56.396-79.232-70.932-108.877-7.284-14.857-12.52-27.324-15.975-36.203-1.729-4.442-3.016-8-3.894-10.517-0.439-1.259-0.776-2.261-1.015-2.987l-0.286-0.875-0.089-0.282-0.031-0.098-0.012-0.038c-0.006-0.017-0.010-0.034 30.527-9.596l-30.537 9.562-3.142-10.031 3.421-9.941 30.258 10.411c-30.258-10.411-30.253-10.428-30.247-10.445l0.013-0.038 0.034-0.098 0.095-0.273 0.303-0.845c0.252-0.695 0.606-1.655 1.065-2.859 0.917-2.411 2.256-5.803 4.047-10.039 3.58-8.469 8.979-20.348 16.443-34.513 14.899-28.271 38.203-65.993 71.968-103.953 67.882-76.322 178.252-153.63 345.359-156.361 167.791-2.743 278.618 74.948 346.59 152.738 33.792 38.673 57.088 77.41 71.957 106.483 7.454 14.566 12.843 26.807 16.41 35.533 1.783 4.365 3.119 7.859 4.028 10.338 0.457 1.237 0.806 2.223 1.058 2.935l0.299 0.866 0.094 0.277 0.030 0.098 0.017 0.038c0.004 0.017 0.009 0.030-30.362 10.116zM921.6 442.923l30.37-10.086 3.255 9.796-3.085 9.852-30.541-9.562zM512 514.398c-39.71 0-70.4-31.104-70.4-67.644s30.69-67.639 70.4-67.639c39.71 0 70.4 31.1 70.4 67.639s-30.69 67.644-70.4 67.644zM377.601 446.754c0 73.523 61.004 131.642 134.399 131.642 73.399 0 134.4-58.119 134.4-131.642s-61.001-131.639-134.4-131.639c-73.395 0-134.399 58.116-134.399 131.639z" />
<glyph unicode="&#xe921;" glyph-name="file-none" d="M133.954 934.060c13.95 10.85 34.055 8.337 44.905-5.613l46.903-60.303c4.358 12.493 16.243 21.457 30.223 21.457h412.576c23.462 0 45.491-9.873 61.274-26.478 14.733-15.499 37.679-38.948 59.503-58.474 18.889-16.899 47.757-46.441 64.418-63.724 14.933-15.49 23.044-36.076 23.044-57.312l-0.009-619.612c0-8.439-3.268-16.115-8.606-21.833l27.473-35.319c10.85-13.952 8.337-34.057-5.611-44.907-13.952-10.85-34.057-8.337-44.907 5.615l-716.8 921.598c-10.851 13.95-8.337 34.055 5.613 44.905zM812.791 113.391l0.009 507.409h-121.6c-45.948 0-83.2 37.25-83.2 83.2v121.6h-349.149l553.94-712.209zM672 825.292v-121.292c0-10.604 8.597-19.2 19.2-19.2h121.562c-0.273 4.491-2.099 8.614-5.082 11.705-16.939 17.574-44.186 45.388-61.018 60.447-23.753 21.251-48.094 46.166-63.219 62.078-3.209 3.379-7.249 5.506-11.443 6.261zM179.185 633.6c17.673 0 32-14.327 32-32v-460.796c0-38.882 31.519-70.4 70.4-70.4h332.799c17.673 0 32-14.327 32-32s-14.327-32-32-32h-332.799c-74.227 0-134.4 60.173-134.399 134.4v460.796c0 17.673 14.327 32 32 32z" />
<glyph unicode="&#xe922;" glyph-name="file-x-02" d="M147.197 755.2c0 74.227 60.173 134.4 134.4 134.4h460.812c74.227 0 134.4-60.173 134.4-134.4v-332.799c0-17.673-14.327-32-32-32s-32 14.327-32 32v332.799c0 38.88-31.518 70.4-70.4 70.4h-460.812c-38.88 0-70.4-31.519-70.4-70.4l-0.004-614.399c0-38.878 31.519-70.4 70.4-70.4h179.199c17.673 0 32-14.327 32-32s-14.327-32-32-32h-179.199c-74.227 0-134.4 60.177-134.4 134.404l0.004 614.395zM326.409 652.799c0 17.673 14.327 32 32 32h307.2c17.673 0 32-14.327 32-32s-14.327-32-32-32h-307.2c-17.673 0-32 14.327-32 32zM326.409 499.2c0 17.673 14.327 32 32 32h307.2c17.673 0 32-14.327 32-32s-14.327-32-32-32h-307.2c-17.673 0-32 14.327-32 32zM326.409 345.6c0 17.673 14.327 32 32 32h153.6c17.673 0 32-14.327 32-32s-14.327-32-32-32h-153.6c-17.673 0-32 14.327-32 32zM617.382 265.826c12.497 12.497 32.755 12.497 45.252 0l79.774-79.774 79.774 79.774c12.497 12.497 32.755 12.497 45.252 0s12.497-32.759 0-45.257l-79.77-79.77 79.77-79.774c12.497-12.497 12.497-32.759 0-45.257-12.497-12.493-32.755-12.493-45.252 0l-79.774 79.774-79.774-79.774c-12.497-12.493-32.755-12.493-45.252 0-12.497 12.497-12.497 32.759 0 45.257l79.77 79.774-79.77 79.77c-12.497 12.497-12.497 32.759 0 45.257z" />
<glyph unicode="&#xe923;" glyph-name="file" d="M147.195 755.2c0 74.227 60.173 134.4 134.4 134.4h386.974c23.462 0 45.487-9.873 61.269-26.478 14.733-15.5 37.683-38.948 59.507-58.474 18.884-16.899 47.757-46.441 64.418-63.724 14.933-15.489 23.044-36.076 23.044-57.312l-0.004-30.526c0.004-0.095 0.004-0.19 0.004-0.285s0-0.192-0.004-0.288l-0.013-511.716c0-74.227-60.173-134.396-134.4-134.396h-460.8c-74.227 0-134.4 60.173-134.4 134.4l0.004 614.4zM812.77 684.799c-0.273 4.49-2.103 8.614-5.082 11.705-16.943 17.574-44.186 45.388-61.018 60.447-23.753 21.251-48.094 46.166-63.219 62.078-3.213 3.379-7.249 5.506-11.443 6.261v-121.291c0-10.604 8.593-19.2 19.2-19.2h121.562zM608.009 825.599v-121.6c0-45.95 37.248-83.2 83.2-83.2h121.596l-0.013-480.003c0-38.878-31.518-70.396-70.4-70.396h-460.8c-38.881 0-70.4 31.522-70.4 70.4l0.004 614.399c0 38.881 31.52 70.4 70.4 70.4h326.413z" />
<glyph unicode="&#xe924;" glyph-name="flame-01" d="M534.63 880.226c-5.999 6.001-14.14 9.373-22.626 9.373s-16.627-3.372-22.626-9.373l22.626-22.627 22.626 22.627zM512.004 811.293c6.831-7.337 14.98-16.232 24.119-26.478 28.331-31.753 66.044-76.305 103.68-127.584 37.709-51.373 74.893-108.89 102.537-166.595 27.831-58.091 44.86-114.039 44.86-162.901 0-78.016-37.726-148.945-97.681-196.489 5.248 16.324 8.081 33.707 8.081 51.819 0 34.637-11.772 70.11-27.14 102.191-15.552 32.465-35.968 63.859-55.863 90.961-19.959 27.196-39.846 50.679-54.716 67.345-7.454 8.35-13.683 15.036-18.086 19.669-2.206 2.317-3.951 4.122-5.171 5.372l-1.421 1.446-0.397 0.401-0.166 0.166c-0.004 0.004-0.009 0.009-22.639-22.618-22.626 22.626-22.643 22.609-22.647 22.605l-0.154-0.154-0.397-0.401-1.421-1.446c-1.22-1.25-2.97-3.055-5.171-5.372-4.403-4.634-10.637-11.315-18.086-19.669-14.869-16.666-34.756-40.149-54.72-67.345-19.892-27.102-40.309-58.496-55.863-90.961-15.369-32.077-27.142-67.554-27.142-102.191 0-18.108 2.834-35.494 8.079-51.814-59.952 47.543-97.679 118.473-97.679 196.484 0 48.862 17.028 104.811 44.859 162.901 27.647 57.704 64.831 115.221 102.54 166.594 37.639 51.279 75.351 95.832 103.682 127.585 9.143 10.246 17.289 19.14 24.124 26.478zM512 448l-22.647 22.605c5.999 5.999 14.161 9.395 22.647 9.395 8.491 0 16.64-3.383 22.639-9.382l-22.639-22.618zM512 401.092c0.043-0.047 0.081-0.090 0.124-0.137 13.931-15.612 32.444-37.487 50.88-62.609 18.509-25.212 36.489-53.094 49.737-80.742 13.431-28.032 20.86-53.508 20.86-74.539 0-60.318-52.745-112.666-121.6-112.666s-121.6 52.348-121.6 112.666c0 21.030 7.428 46.507 20.859 74.539 13.247 27.648 31.229 55.526 49.738 80.742 18.441 25.122 36.954 46.993 50.884 62.609 0.038 0.047 0.081 0.090 0.119 0.137zM512 6.4c185.229 0 339.2 142.34 339.2 321.335 0 62.468-21.372 128.418-51.14 190.554-29.952 62.519-69.568 123.552-108.659 176.811-39.164 53.354-78.251 99.518-107.52 132.323-14.652 16.421-26.88 29.54-35.486 38.59-4.301 4.526-7.701 8.037-10.044 10.437-1.173 1.2-2.082 2.123-2.705 2.756l-0.725 0.731-0.201 0.2-0.090 0.088c-0.004 0.006 0 0-22.626-22.627-22.626 22.627-22.622 22.634-22.626 22.627l-0.090-0.088-0.201-0.2-0.725-0.731c-0.623-0.634-1.532-1.556-2.705-2.756-2.342-2.4-5.743-5.911-10.044-10.437-8.606-9.050-20.838-22.169-35.486-38.59-29.272-32.806-68.361-78.969-107.523-132.323-39.093-53.26-78.71-114.293-108.663-176.812-29.77-62.135-51.142-128.085-51.142-190.554 0-178.995 153.974-321.335 339.2-321.335z" />
<glyph unicode="&#xe926;" glyph-name="folder-open-02" d="M145.068 739.367h241.471c2.829 0 5.542-1.124 7.543-3.124l61.236-61.238c14.003-14.003 32.994-21.869 52.8-21.869h284.587c5.888 0 10.667-4.776 10.667-10.667v-97.797h-412.707c-31.124 0-58.984-19.305-69.912-48.451l-116.642-311.044c-2.884-7.689-4.361-15.838-4.361-24.051 0-2.483-2.013-4.497-4.497-4.497h-50.183c-5.891 0-10.667 4.774-10.667 10.667v561.405c0 5.891 4.776 10.667 10.667 10.667zM867.371 544.513v97.956c0 41.237-33.429 74.667-74.667 74.667h-284.587c-2.829 0-5.542 1.123-7.543 3.124l-61.239 61.238c-14.001 14.002-32.993 21.869-52.796 21.869h-241.471c-41.237 0-74.667-33.429-74.667-74.667v-561.405c0-41.237 33.43-74.667 74.667-74.667h616.434c32.137 0 60.672 20.565 70.835 51.055l100.902 302.711c15.586 46.763-17.566 95.003-65.869 98.117zM390.664 480.674h471.741c7.279 0 12.42-7.134 10.121-14.042l-100.902-302.707c-1.455-4.356-5.53-7.296-10.121-7.296h-497.899c0.096 1.489 0.145 2.987 0.145 4.497 0 0.542 0.097 1.075 0.286 1.579l116.642 311.044c1.561 4.164 5.541 6.925 9.987 6.925z" />
<glyph unicode="&#xe927;" glyph-name="graduation-cap-02" d="M473.775 884.008c23.552 14.034 52.898 14.034 76.45 0l408.913-243.689c25.668-15.295 32.354-46.764 20.062-70.487v-205.019c0-17.673-14.327-32-32-32s-32 14.327-32 32v157.692l-75.14-44.779v-259.819c0-26.415-13.956-50.863-36.702-64.294l-230.054-135.846c-37.999-22.438-85.367-21.662-122.607 2.010l-211.114 134.199c-21.556 13.7-34.612 37.47-34.612 63.010v248.205l-140.113 83.499c-34.707 20.683-34.707 70.946 0 91.63l408.916 243.689zM268.971 427.051v-210.065c0-3.648 1.865-7.044 4.944-8.998l211.115-134.199c16.926-10.756 38.46-11.11 55.731-0.913l230.054 135.846c3.251 1.92 5.244 5.414 5.244 9.186v221.679l-225.835-134.588c-23.552-14.033-52.898-14.033-76.45 0l-204.804 122.052zM911.002 594.504l-393.54 234.526c-3.366 2.005-7.561 2.005-10.923 0l-393.541-234.526 393.541-234.525c3.362-2.005 7.556-2.005 10.923 0l393.54 234.525z" />
<glyph unicode="&#xe928;" glyph-name="home" d="M523.746 796.483c-6.938 4.69-16.555 4.69-23.492 0l-332.799-225.061c-5.069-3.428-7.455-8.468-7.455-13.173v-421.212c0-21.167 18.524-41.037 44.8-41.037h147.2v260.147c0 46.059 38.784 80.691 83.2 80.691h153.6c44.416 0 83.2-34.633 83.2-80.691v-260.147h147.2c26.278 0 44.8 19.87 44.8 41.037v421.212c0 4.705-2.385 9.745-7.454 13.173l-332.8 225.061zM819.2 32c58.556 0 108.8 45.53 108.8 105.037v421.212c0 26.816-13.658 51.349-35.601 66.188l-332.8 225.061c-28.595 19.337-66.603 19.337-95.198 0l-332.799-225.061c-21.944-14.839-35.602-39.372-35.602-66.188v-421.212c0-59.507 50.246-105.037 108.8-105.037h614.4zM608 96v260.147c0 7.723-7.061 16.691-19.2 16.691h-153.6c-12.138 0-19.2-8.969-19.2-16.691v-260.147h192z" />
<glyph unicode="&#xe929;" glyph-name="layers-05" d="M497.408 886.076c9.161 4.698 20.028 4.698 29.193 0l409.6-209.952c10.684-5.476 17.404-16.471 17.404-28.477s-6.72-23.001-17.404-28.477l-409.6-209.95c-9.165-4.698-20.032-4.698-29.193 0l-409.602 209.95c-10.684 5.476-17.403 16.471-17.403 28.477s6.72 23.001 17.403 28.477l409.602 209.952zM172.556 647.647l339.449-173.992 339.443 173.992-339.443 173.993-339.449-173.993zM73.926 463.659c8.061 15.727 27.346 21.939 43.074 13.879l395.005-202.47 395.004 202.47c15.727 8.060 35.008 1.847 43.072-13.879 8.060-15.731 1.847-35.012-13.879-43.076l-409.6-209.95c-9.165-4.698-20.032-4.698-29.193 0l-409.602 209.95c-15.727 8.064-21.942 27.345-13.88 43.076zM73.926 262.946c8.061 15.727 27.346 21.943 43.074 13.879l395.005-202.466 395.004 202.466c15.727 8.064 35.008 1.847 43.072-13.879 8.060-15.727 1.847-35.012-13.879-43.072l-409.6-209.954c-9.165-4.693-20.032-4.693-29.193 0l-409.602 209.954c-15.727 8.060-21.942 27.345-13.88 43.072z" />
<glyph unicode="&#xe92a;" glyph-name="lightning-01" d="M631.518 886.691c12.553-5.75 20.002-18.904 18.479-32.627l-28.023-252.177 194.138-110.934c8.478-4.847 14.281-13.299 15.757-22.95 1.476-9.655-1.54-19.452-8.183-26.607l-394.428-424.772c-9.353-10.069-24.091-13.047-36.617-7.39-12.526 5.653-20.043 18.675-18.676 32.35l28.006 280.055-190.814 81.775c-9.568 4.1-16.543 12.599-18.7 22.784-2.157 10.18 0.773 20.779 7.856 28.403l394.428 424.771c9.399 10.118 24.222 13.069 36.779 7.319zM278.124 444.343l170.627-73.126c12.838-5.5 20.625-18.697 19.238-32.597l-20.873-208.704 302.229 325.474-177.374 101.357c-11.076 6.33-17.335 18.637-15.927 31.318l19.635 176.727-297.556-320.448z" />
<glyph unicode="&#xe92b;" glyph-name="list" d="M153.599 736c17.673 0 32-14.327 32-32v-0.546c0-17.673-14.327-32-32-32s-32 14.327-32 32v0.546c0 17.673 14.327 32 32 32zM340.052 704c0 17.673 14.327 32 32 32h549.548c17.673 0 32-14.327 32-32s-14.327-32-32-32h-549.548c-17.673 0-32 14.327-32 32zM153.599 459.52c17.673 0 32-14.327 32-32v-0.546c0-17.673-14.327-32-32-32s-32 14.327-32 32v0.546c0 17.673 14.327 32 32 32zM340.052 427.52c0 17.673 14.327 32 32 32h549.548c17.673 0 32-14.327 32-32s-14.327-32-32-32h-549.548c-17.673 0-32 14.327-32 32zM153.599 183.040c17.673 0 32-14.327 32-32v-0.546c0-17.673-14.327-32-32-32s-32 14.327-32 32v0.546c0 17.673 14.327 32 32 32zM340.052 151.040c0 17.673 14.327 32 32 32h549.548c17.673 0 32-14.327 32-32s-14.327-32-32-32h-549.548c-17.673 0-32 14.327-32 32z" />
<glyph unicode="&#xe92c;" glyph-name="location" d="M512 825.599c-159.365 0-288.556-129.191-288.556-288.557 0-45.975 17.44-98.455 46.368-153.098 28.71-54.229 67.379-108.070 106.677-156.1 39.213-47.927 78.517-89.421 108.051-118.959 10.586-10.581 19.891-19.605 27.46-26.816 7.569 7.211 16.875 16.235 27.46 26.816 29.538 29.538 68.838 71.031 108.053 118.959 39.296 48.030 77.965 101.871 106.675 156.1 28.928 54.643 46.37 107.123 46.37 153.098 0 159.366-129.195 288.557-288.559 288.557zM512 38.4c-21.261-23.919-21.265-23.915-21.269-23.906l-0.294 0.26-0.759 0.678c-0.653 0.589-1.604 1.446-2.829 2.564-2.449 2.231-5.999 5.495-10.496 9.707-8.986 8.418-21.764 20.625-37.065 35.93-30.569 30.566-71.406 73.664-112.332 123.686-40.841 49.916-82.312 107.383-113.706 166.682-31.176 58.889-53.806 122.163-53.806 183.041 0 194.712 157.845 352.557 352.556 352.557 194.714 0 352.559-157.845 352.559-352.557 0-60.878-22.63-124.153-53.807-183.041-31.394-59.298-72.866-116.766-113.707-166.682-40.926-50.022-81.762-93.12-112.329-123.686-15.305-15.305-28.079-27.511-37.069-35.93-4.497-4.211-8.047-7.475-10.496-9.707-1.225-1.118-2.176-1.975-2.829-2.564l-1.033-0.922c-0.004-0.009-0.030-0.030-21.291 23.889zM512 38.4l21.261-23.919-21.261-18.897-21.269 18.91 21.269 23.906zM512.013 620.792c-38.878 0-70.4-31.519-70.4-70.4 0-38.879 31.522-70.401 70.4-70.401 38.882 0 70.4 31.522 70.4 70.401 0 38.881-31.518 70.4-70.4 70.4zM377.614 550.392c0 74.227 60.172 134.4 134.399 134.4s134.4-60.173 134.4-134.4c0-74.228-60.173-134.401-134.4-134.401s-134.399 60.173-134.399 134.401z" />
<glyph unicode="&#xe92d;" glyph-name="lock" d="M249.6 623.542c0 146.857 116.619 266.057 262.4 266.057 145.779 0 262.4-119.201 262.4-266.057v-11.866c44.617-13.926 76.8-56.156 76.8-105.163v-390.097c0-60.105-48.414-110.016-108.8-110.016h-460.8c-60.387 0-108.8 49.911-108.8 110.016v390.097c0 49.007 32.183 91.237 76.8 105.163v11.866zM313.6 616.532h396.8v7.009c0 112.464-88.913 202.057-198.4 202.057-109.489 0-198.4-89.593-198.4-202.057v-7.009zM281.6 552.532c-24.094 0-44.8-20.304-44.8-46.019v-390.097c0-25.711 20.706-46.016 44.8-46.016h460.8c24.094 0 44.8 20.305 44.8 46.016v390.097c0 25.715-20.706 46.019-44.8 46.019h-460.8zM512 403.2c17.673 0 32-14.327 32-32v-102.4c0-17.673-14.327-32-32-32s-32 14.327-32 32v102.4c0 17.673 14.327 32 32 32z" />
<glyph unicode="&#xe92f;" glyph-name="logout-02" d="M130.082 802.88c22.966 22.775 54.058 35.521 86.422 35.521h158.118c17.673 0 32-14.327 32-32s-14.327-32-32-32h-158.118c-15.562 0-30.433-6.133-41.356-16.965-10.914-10.823-16.996-25.445-16.996-40.635v-537.601c0-15.189 6.082-29.811 16.996-40.636 10.923-10.829 25.794-16.964 41.356-16.964h158.118c17.673 0 32-14.327 32-32s-14.327-32-32-32h-158.118c-32.364 0-63.456 12.749-86.422 35.524-22.975 22.78-35.931 53.739-35.931 86.076v537.601c0 32.337 12.956 63.296 35.931 86.079zM680.115 675.94c12.779 12.208 33.033 11.744 45.244-1.036l195.631-204.799c11.814-12.369 11.814-31.842 0-44.207l-195.631-204.8c-12.211-12.779-32.465-13.244-45.244-1.037s-13.244 32.465-1.037 45.244l143.953 150.694h-437.181c-17.673 0-32 14.327-32 32s14.327 32 32 32h437.181l-143.953 150.697c-12.207 12.78-11.742 33.036 1.037 45.243z" />
<glyph unicode="&#xe930;" glyph-name="map" d="M110.256 815.963c8.906 5.934 20.189 7.023 30.066 2.903l222.194-92.707 255.378 93.234c7.087 2.587 14.861 2.587 21.948 0l2.432-0.887c0.469-0.16 0.934-0.33 1.395-0.51l263.305-96.127c12.625-4.61 21.026-16.618 21.026-30.060v-585.143c0-10.445-5.099-20.233-13.658-26.223-8.559-5.986-19.503-7.42-29.316-3.836l-256.158 93.517-256.155-93.517c-7.556-2.761-15.873-2.573-23.296 0.525l-233.74 97.523c-11.917 4.975-19.678 16.623-19.678 29.534v585.143c0 10.702 5.35 20.695 14.256 26.63zM663.855 225.485l200.145-73.071v517.012l-200 73.016v-513.872c0-1.041-0.051-2.069-0.145-3.085zM600 744.727l-200-73.015v-517.011l200.013 73.020c-0.009 0.282-0.013 0.567-0.013 0.849v516.158zM336 152.081v515.794l-176 73.433v-515.793l176-73.434z" />
<glyph unicode="&#xe931;" glyph-name="menu" d="M138.667 704c0 17.673 14.327 32 32 32h682.667c17.673 0 32-14.327 32-32s-14.327-32-32-32h-682.667c-17.673 0-32 14.327-32 32zM138.667 448c0 17.673 14.327 32 32 32h682.667c17.673 0 32-14.327 32-32s-14.327-32-32-32h-682.667c-17.673 0-32 14.327-32 32zM138.667 192c0 17.673 14.327 32 32 32h682.667c17.673 0 32-14.327 32-32s-14.327-32-32-32h-682.667c-17.673 0-32 14.327-32 32z" />
<glyph unicode="&#xe932;" glyph-name="message-chat-01" d="M213.333 757.333h512c29.457 0 53.333-23.878 53.333-53.333v-181.333h-224c-64.802 0-117.333-52.531-117.333-117.333v-96.32c-0.606-0.521-1.19-1.067-1.758-1.634l-123.459-123.456v100.83c0 17.673-14.327 32-32 32h-66.783c-29.455 0-53.333 23.881-53.333 53.333v333.914c0 29.455 23.878 53.333 53.333 53.333zM842.667 518.251v185.749c0 64.801-52.531 117.333-117.333 117.333h-512c-64.801 0-117.333-52.532-117.333-117.333v-333.914c0-64.802 52.532-117.333 117.333-117.333h34.783v-146.086c0-12.941 7.796-24.61 19.754-29.564s25.722-2.214 34.874 6.938l140.307 140.309c15.287-47.040 59.482-81.045 111.616-81.045h121.702l101.931-101.931c9.152-9.152 22.916-11.891 34.876-6.938 11.955 4.954 19.75 16.623 19.75 29.564v81.412c54.157 10.402 95.074 58.035 95.074 115.226v144.695c0 53.709-36.083 98.987-85.333 112.917zM501.333 260.638v144.695c0 29.457 23.876 53.333 53.333 53.333h256c29.457 0 53.333-23.876 53.333-53.333v-144.695c0-29.457-23.876-53.333-53.333-53.333h-9.741c-17.673 0-32-14.327-32-32v-34.048l-56.674 56.674c-6.003 6.003-14.14 9.374-22.63 9.374h-134.955c-29.457 0-53.333 23.876-53.333 53.333z" />
<glyph unicode="&#xe933;" glyph-name="paperclip" d="M445.726 822.658c12.501-12.496 12.501-32.757 0.004-45.255l-219.356-219.39c-111.541-111.54-124.805-262.141-21.997-360.837 105.957-101.717 258.301-88.055 361.972 19.934l0.457 0.469 278.332 278.332c59.281 59.281 59.281 155.398 0 214.681-59.285 59.283-155.401 59.283-214.682 0l-59.063-59.061-234.91-233.525c-23.644-23.505-23.7-61.743-0.126-85.316 23.524-23.522 61.665-23.522 85.19 0l302.926 302.929c12.497 12.497 32.759 12.497 45.257 0s12.497-32.758 0-45.255l-302.929-302.926c-48.517-48.521-127.18-48.521-175.698 0-48.62 48.619-48.503 127.484 0.26 175.957l234.911 233.525 58.927 58.927c84.275 84.277 220.915 84.276 305.195 0 84.275-84.276 84.275-220.916 0-305.193l-278.11-278.106c-124.169-129.122-316.896-151.462-452.229-21.542-135.61 130.189-108.463 322.735 21.061 452.258 0 0 0.001 0.001 0 0l219.357 219.39c12.496 12.498 32.756 12.499 45.253 0.003z" />
<glyph unicode="&#xe934;" glyph-name="phone-call-01" d="M525.431 862.937c-2.948-17.425 8.789-33.942 26.214-36.89 84.42-14.282 161.468-54.215 222.899-115.334 61.38-61.261 101.197-138.105 115.507-222.347 2.961-17.421 19.486-29.15 36.907-26.189 17.425 2.961 29.15 19.486 26.189 36.907-16.559 97.492-62.711 186.393-133.414 256.949l-0.030 0.034c-70.66 70.304-159.693 116.556-257.382 133.083-17.425 2.948-33.941-8.788-36.89-26.214zM218.864 766.88c4.317 3.967 6.86 4.734 7.486 4.874 0.198-0.058 0.586-0.201 1.192-0.533 1.376-0.752 3.034-2.033 4.748-3.742l0.586-0.585c0.256-0.255 0.516-0.506 0.78-0.753 11.302-10.539 22.177-21.568 34.035-33.791 3.133-3.228 6.331-6.469 9.418-9.599 0.077-0.078 0.153-0.155 0.23-0.233l9.036-9.21 53.58-53.471c3.985-3.976 5.45-6.459 5.958-7.575-0.508-1.115-1.973-3.598-5.958-7.575-2.194-2.189-4.204-4.219-6.125-6.159-3.532-3.567-6.761-6.828-10.279-10.217-0.225-0.217-0.447-0.437-0.666-0.66-2.355-2.406-4.033-4.127-5.297-5.423-1.028-1.055-1.782-1.828-2.403-2.459-0.123-0.126-0.233-0.237-0.329-0.333-0.541-0.427-1.186-0.945-1.998-1.62-1.862-1.546-4.556-3.872-8.908-7.765l-0.091-0.076c-0.566-0.484-1.939-1.658-3.549-3.512-12.35-12.852-18.843-27.214-20.541-41.848-1.657-14.288 1.585-26.308 3.814-33.354l0.747-2.24c0.236-0.704 0.497-1.404 0.782-2.091 15.325-37.047 36.652-71.189 67.565-110.357 0.38-0.482 0.773-0.951 1.179-1.412 55.582-68.173 114.755-122.039 180.556-163.571 9.387-5.939 18.816-10.645 26.359-14.409l0.482-0.239c7.381-3.682 12.608-6.323 16.781-8.905 0.435-0.269 0.875-0.529 1.323-0.777 0.23-0.145 0.589-0.367 0.977-0.593 0.589-0.35 1.493-0.87 2.611-1.425 10.479-5.231 21.594-8.243 33.63-8.243 29.525 0 47.697 18.189 52.062 22.558 0.085 0.090 0.166 0.171 0.243 0.247l38.302 38.221c2.018 2.014 4.036 3.614 5.76 4.587 0.469 0.265 0.836 0.439 1.097 0.546 0.128-0.064 0.286-0.145 0.474-0.252 1.216-0.695 2.705-1.911 4.083-3.422 0.333-0.367 0.674-0.721 1.020-1.067l107.409-107.187c0.192-0.768 0.708-3.537-0.521-9.907-0.772-3.994-1.98-7.851-3.089-10.867l-3.366-3.328c-4.855-4.804-11.469-11.375-18.47-18.398-13.158-13.201-29.099-29.406-36.45-37.914-13.299-13.995-27.887-20.416-49.677-20.416-3.14 0-5.18 0.013-6.865 0.124l-0.085 0.004c-51.584 3.294-100.868 23.586-140.587 42.539-106.398 51.409-199.888 124.399-277.716 217.097-64.792 77.939-107.249 148.932-135.243 224.416l-0.034 0.090c-17.149 45.821-22.374 78.735-19.967 108.177 1.319 15.277 6.834 27.117 17.682 37.943l66.227 66.092zM322.965 767.398l-9.411 9.59c-11.83 12.192-23.483 24.032-35.848 35.584l-0.208 0.207c-8.251 8.234-26.006 22.999-51.133 22.999-20.736 0-38.336-10.086-51.579-22.493-0.246-0.23-0.488-0.464-0.726-0.702l-66.632-66.496c-21.576-21.532-33.647-47.508-36.244-77.835l-0.009-0.111c-3.442-41.902 4.619-84.623 23.791-135.863 31.010-83.601 77.637-160.781 146.068-243.089l0.097-0.119c83.549-99.529 184.25-178.223 298.999-233.66l0.137-0.064c41.152-19.644 99.686-44.561 164.117-48.687 3.998-0.26 8.021-0.26 10.735-0.26h0.333c38.933 0 70.771 13.325 96.819 41.122 0.149 0.162 0.299 0.32 0.444 0.486 0.196 0.213 0.388 0.435 0.576 0.657 5.052 5.931 19.379 20.599 33.613 34.88 6.874 6.895 13.376 13.355 18.167 18.095l5.717 5.649 2.108 2.074c2.62 2.573 4.779 5.577 6.379 8.883-30.571 14.805-29.086 14.084 0 0l0.034 0.073 0.043 0.090 0.107 0.226 0.299 0.64c0.235 0.503 0.533 1.169 0.883 1.975 0.7 1.613 1.617 3.823 2.615 6.507 1.967 5.269 4.42 12.8 6.089 21.427 2.846 14.754 5.67 44.757-16.503 66.739l-0.068 0.068-107.486 107.268c-8.644 9.271-26.338 24.043-51.2 24.043-25.574 0-44.028-15.91-52.113-23.974l-38.302-38.225c-1.31-1.31-2.347-2.278-3.708-3.085-1.207-0.713-2.223-1.020-3.388-1.020-0.772 0-1.975 0.085-4.254 1.126-0.166 0.098-0.346 0.209-0.538 0.32-0.243 0.145-0.538 0.316-0.883 0.512-6.716 4.087-14.131 7.787-20.429 10.931l-0.644 0.32c-8.004 3.994-14.78 7.403-21.205 11.469-59.371 37.47-113.732 86.694-165.805 150.716-0.201 0.247-0.405 0.491-0.613 0.73-27.756 35.281-45.236 63.838-57.533 93.263l-0.134 0.401c-1.222 3.913-1.294 5.596-1.194 6.454 0.036 0.307 0.113 0.695 0.417 1.307 0.319 0.643 1.125 2.010 3.101 3.983 0.105 0.104 0.209 0.209 0.312 0.315 3.718 3.319 5.62 4.944 6.577 5.739 0.46 0.382 0.692 0.564 0.813 0.659l0.407 0.316c0.201 0.156 0.578 0.45 1.018 0.811 1.961 1.606 3.558 3.232 4.727 4.423l0.127 0.129c0.622 0.633 1.487 1.52 2.626 2.687 1.263 1.295 2.862 2.933 4.835 4.95 3.924 3.791 7.966 7.871 11.721 11.66 1.793 1.81 3.52 3.554 5.139 5.169 13.395 13.368 24.93 30.992 24.93 52.876s-11.535 39.508-24.93 52.876l-53.172 53.063c-3.054 3.142-6.095 6.225-9.027 9.197zM517.606 695.382c-2.918-17.43 8.841-33.928 26.27-36.849 44.51-7.459 84.996-28.452 117.513-60.901 32.457-32.391 53.355-72.789 61.022-117.329 2.995-17.417 19.546-29.107 36.962-26.108 17.421 2.999 29.107 19.546 26.112 36.962-9.924 57.646-37.090 110.066-78.886 151.776-41.737 41.651-94.259 69.018-152.141 78.72-17.429 2.921-33.929-8.841-36.851-26.271z" />
<glyph unicode="&#xe935;" glyph-name="phone" d="M250.025 793.788l-66.227-66.092c-10.848-10.826-16.363-22.665-17.681-37.943-2.408-29.441 2.818-62.355 19.967-108.177l0.034-0.090c27.994-75.487 70.452-146.476 135.245-224.419 77.824-92.693 171.31-165.679 277.699-217.088 39.723-18.957 89.011-39.249 140.604-42.543l0.085-0.004c1.681-0.115 3.721-0.124 6.865-0.124 21.786 0 36.373 6.421 49.677 20.416 7.351 8.508 23.292 24.713 36.446 37.909 7.002 7.027 13.615 13.594 18.475 18.402l3.366 3.324c1.109 3.021 2.317 6.878 3.085 10.871 1.233 6.37 0.713 9.139 0.521 9.903l-107.405 107.187c-0.35 0.35-0.687 0.704-1.020 1.067-1.382 1.51-2.867 2.726-4.087 3.426-0.183 0.107-0.341 0.188-0.474 0.252-0.26-0.111-0.623-0.282-1.097-0.546-1.719-0.973-3.742-2.573-5.756-4.587l-38.302-38.225c-0.077-0.073-0.158-0.154-0.247-0.243-4.361-4.369-22.537-22.558-52.058-22.558-12.041 0-23.155 3.012-33.634 8.239-1.114 0.559-2.022 1.079-2.611 1.429-0.384 0.226-0.742 0.448-0.977 0.593-0.444 0.247-0.883 0.503-1.318 0.772-4.173 2.586-9.404 5.227-16.781 8.905l-0.482 0.243c-7.539 3.759-16.964 8.461-26.342 14.396-65.809 41.532-124.988 95.403-180.574 163.584-0.407 0.457-0.8 0.93-1.18 1.408-30.913 39.172-52.24 73.31-67.564 110.36-0.285 0.688-0.546 1.387-0.782 2.093l-0.747 2.237c-2.23 7.047-5.472 19.067-3.814 33.355 1.697 14.635 8.191 28.996 20.541 41.848 1.61 1.854 2.983 3.028 3.549 3.512l0.091 0.077c4.351 3.892 7.046 6.219 8.907 7.765 0.813 0.675 1.457 1.193 1.999 1.62 0.096 0.097 0.205 0.208 0.329 0.334 0.62 0.631 1.375 1.405 2.405 2.461 1.264 1.295 2.942 3.016 5.295 5.42 0.218 0.223 0.44 0.443 0.666 0.66 3.517 3.389 6.747 6.651 10.279 10.218 1.921 1.94 3.931 3.97 6.125 6.159 3.985 3.977 5.45 6.46 5.958 7.575-0.508 1.115-1.973 3.599-5.958 7.575l-53.693 53.583c-3.017 3.105-6.045 6.18-9.151 9.328l-0.032 0.032c-3.088 3.13-6.255 6.341-9.389 9.569-11.859 12.222-22.734 23.252-34.035 33.791-0.264 0.247-0.524 0.497-0.78 0.753l-0.586 0.585c-1.713 1.71-3.372 2.99-4.747 3.743-0.606 0.331-0.994 0.474-1.192 0.532-0.627-0.14-3.17-0.907-7.486-4.874zM881.634 159.104l28.8-13.952c-1.6-3.302-3.755-6.306-6.374-8.879l-2.112-2.078-5.717-5.645c-4.787-4.74-11.294-11.2-18.163-18.095-14.238-14.281-28.565-28.949-33.613-34.88-0.333-0.393-0.67-0.772-1.020-1.143-26.052-27.802-57.886-41.122-96.819-41.122h-0.337c-2.714-0.004-6.737-0.004-10.735 0.26-64.431 4.122-122.961 29.043-164.113 48.683l-0.137 0.068c-114.752 55.437-215.452 134.131-299.001 233.66l-0.098 0.115c-68.432 82.313-115.058 159.492-146.068 243.094-19.172 51.239-27.232 93.96-23.791 135.861l0.009 0.111c2.597 30.327 14.668 56.303 36.244 77.835l66.631 66.496c0.239 0.238 0.48 0.472 0.726 0.702 13.242 12.406 30.843 22.493 51.579 22.493 25.127 0 42.881-14.765 51.133-22.999l0.208-0.207c18.505-17.288 35.552-35.101 54.286-54.371l-0.172 0.172 0.346-0.35-0.173 0.178 53.172-53.063c13.397-13.368 24.93-30.992 24.93-52.876s-11.533-39.508-24.93-52.876c-1.618-1.615-3.345-3.359-5.139-5.169-3.755-3.79-7.796-7.869-11.72-11.66 0.105 0.108 0.212 0.217 0.32 0.326l-0.666-0.66c0.115 0.111 0.231 0.223 0.346 0.334-1.973-2.016-3.572-3.655-4.835-4.95-1.138-1.167-2.004-2.054-2.626-2.687l-0.127-0.13c-1.169-1.19-2.765-2.816-4.727-4.422-0.441-0.361-0.817-0.655-1.018-0.811l-0.407-0.316c-0.122-0.095-0.354-0.277-0.813-0.659-0.957-0.795-2.859-2.42-6.577-5.739l0.16 0.166c0.163 0.157 0.332 0.321 0.505 0.494 2.014 2.191 3.693 4.676 5.029 7.341-1.621-3.237-3.573-5.677-5.082-7.288l-1.228-1.236c-0.484-0.458-0.852-0.773-1.049-0.941l-0.037-0.031c-0.158-0.136-0.337-0.283-0.337-0.283zM376.298 587.975l0.084 0.069 0.29 0.246c0.289 0.242 0.745 0.624 1.333 1.167-1.977-1.972-2.764-3.358-3.083-4.002-0.303-0.612-0.381-1-0.417-1.307-0.099-0.858-0.028-2.54 1.194-6.454l-0.089 0.267-0.049-0.016c-0.049 0.118-0.098 0.236-0.147 0.355l-9.606-3.974 10.388 1.88-0.364 1.087c12.297-29.424 29.777-57.985 57.532-93.262-0.512 0.593-1.050 1.169-1.609 1.728l-0.196 0.196 2.517-2.829-0.119 0.154c52.075-64.017 106.423-113.207 165.79-150.673 6.43-4.066 13.239-7.497 21.244-11.494l0.644-0.32c6.293-3.14 13.709-6.839 20.429-10.927-0.491 0.273-1.075 0.589-1.728 0.913l2.543-1.463c0.619-0.316 1.062-0.576 1.242-0.683-0.094 0.060-0.316 0.201-0.64 0.397 2.283-1.037 3.486-1.122 4.258-1.122 1.161 0 2.18 0.307 3.383 1.020 1.365 0.806 2.398 1.775 3.712 3.085l38.302 38.221c8.081 8.068 26.539 23.974 52.109 23.974 24.866 0 42.56-14.767 51.2-24.043l-0.457 0.461 1.020-1.067c-0.183 0.201-0.371 0.401-0.563 0.606l107.567-107.345c22.165-21.982 19.341-51.977 16.491-66.726-1.664-8.627-4.122-16.158-6.084-21.431-0.998-2.679-1.916-4.894-2.615-6.502-0.354-0.811-0.653-1.472-0.883-1.98l-0.299-0.636-0.107-0.226-0.047-0.090-0.034-0.077c0 0 0 0-28.8 13.952zM642.88 309.316c-0.277 0.171-0.538 0.38-0.815 0.55 0.341-0.196 0.64-0.367 0.883-0.512 0.188-0.111 0.371-0.222 0.533-0.324-0.192 0.090-0.393 0.183-0.602 0.286zM375.758 577.475l-0.058 0.22 0.134-0.401-0.076 0.181z" />
<glyph unicode="&#xe936;" glyph-name="plus-01" d="M512 787.2c17.673 0 32-14.327 32-32v-275.2h275.2c17.673 0 32-14.327 32-32s-14.327-32-32-32h-275.2v-275.2c0-17.673-14.327-32-32-32s-32 14.327-32 32v275.2h-275.2c-17.673 0-32 14.327-32 32s14.327 32 32 32h275.2v275.2c0 17.673 14.327 32 32 32z" />
<glyph unicode="&#xe937;" glyph-name="presentation-01" d="M204.801 800h614.399c38.882 0 70.4-31.519 70.4-70.4v-358.4c0-38.882-31.518-70.4-70.4-70.4h-408.852c-0.496 0.013-0.991 0.013-1.484 0h-204.063c-38.881 0-70.4 31.518-70.4 70.4v358.4c0 38.881 31.519 70.4 70.4 70.4zM363.425 236.8l-60.586-161.566c-6.205-16.546 2.179-34.991 18.726-41.195 16.548-6.208 34.993 2.176 41.199 18.726l69.015 184.034h163.814l83.273-183.198c7.313-16.090 26.283-23.202 42.372-15.889s23.202 26.283 15.889 42.372l-71.232 156.715h153.306c74.227 0 134.4 60.173 134.4 134.4v358.4c0 74.227-60.173 134.4-134.4 134.4h-614.399c-74.227 0-134.4-60.173-134.4-134.4v-358.4c0-74.227 60.173-134.4 134.4-134.4h158.624zM716.8 710.4c17.673 0 32-14.327 32-32v-204.8c0-17.673-14.327-32-32-32s-32 14.327-32 32v204.8c0 17.673 14.327 32 32 32zM512 608c17.673 0 32-14.327 32-32v-102.4c0-17.673-14.327-32-32-32s-32 14.327-32 32v102.4c0 17.673 14.327 32 32 32zM307.201 556.8c17.673 0 32-14.327 32-32v-51.2c0-17.673-14.327-32-32-32s-32 14.327-32 32v51.2c0 17.673 14.327 32 32 32z" />
<glyph unicode="&#xe938;" glyph-name="search-01" d="M488.107 774.401c167.070 0 302.507-135.437 302.507-302.508 0-84.595-34.726-161.084-90.701-215.983-0.073-0.068-0.141-0.137-0.213-0.205-54.549-53.397-129.229-86.319-211.593-86.319-167.071 0-302.508 135.437-302.508 302.507s135.437 302.508 302.508 302.508zM767.031 234.125c54.609 64.004 87.582 147.038 87.582 237.769 0 202.417-164.092 366.508-366.507 366.508-202.417 0-366.508-164.090-366.508-366.508 0-202.415 164.090-366.507 366.508-366.507 88.636 0 169.92 31.462 233.297 83.831l126.746-122.615c12.702-12.288 32.96-11.955 45.248 0.747s11.955 32.964-0.747 45.252l-125.619 121.523z" />
<glyph unicode="&#xe93a;" glyph-name="share" d="M127.787 121.609c-3.413 0-6.827 0.427-10.24 1.707-13.227 4.267-21.76 16.64-21.76 30.293 0 3.84 4.266 368.213 358.4 460.374v128.427c0 11.947 6.4 22.613 17.067 28.16 10.24 5.547 23.040 5.12 32.853-1.707l409.6-271.361c8.96-5.973 14.080-15.36 14.507-26.027 0-10.667-4.693-20.48-13.227-26.453l-409.6-296.96c-9.813-7.253-22.613-8.107-33.28-2.56s-17.493 16.64-17.493 28.587v128.853c0 0-2.133 0-3.413 0-168.533 0-296.107-166.827-297.387-168.533-5.973-8.107-15.787-12.8-25.6-12.8h-0.427zM450.347 366.942c13.227 0 26.453-0.853 40.107-2.56 16.213-2.133 28.16-15.787 28.16-31.573v-96l321.28 232.96-321.28 212.908v-93.867c0-14.933-10.667-28.16-25.173-31.147-216.32-46.508-292.267-204.801-318.72-308.908 61.44 54.613 158.72 118.613 276.053 118.613l-0.427-0.427z" />
<glyph unicode="&#xe93b;" glyph-name="table" d="M70.4 703.999c0 102.504 83.096 185.6 185.6 185.6h512c102.502 0 185.6-83.096 185.6-185.6v-511.999c0-102.507-83.098-185.6-185.6-185.6h-512c-102.504 0-185.6 83.093-185.6 185.6v511.999zM416 70.4h352c67.157 0 121.6 54.443 121.6 121.6v351.999h-473.6v-473.599zM352 543.999h-217.6v-351.999c0-67.157 54.442-121.6 121.6-121.6h96v473.599zM416 607.999h473.6v96c0 67.158-54.443 121.6-121.6 121.6h-352v-217.6zM352 825.599h-96c-67.158 0-121.6-54.442-121.6-121.6v-96h217.6v217.6z" />
<glyph unicode="&#xe93c;" glyph-name="trash-01" d="M352 832c0 17.673 14.327 32 32 32h256c17.673 0 32-14.327 32-32s-14.327-32-32-32h-256c-17.673 0-32 14.327-32 32zM138.667 696.471c0 17.673 14.327 32 32 32h682.667c17.673 0 32-14.327 32-32s-14.327-32-32-32h-56.26c0.9-5.323 1.267-10.788 1.050-16.316l-19.456-494.478c-0.35-65.536-51.059-121.677-117.333-121.677h-298.667c-66.273 0-116.986 56.141-117.332 121.677l-19.459 494.478c-0.218 5.528 0.149 10.993 1.051 16.316h-56.261c-17.673 0-32 14.327-32 32zM300.481 664.471c-4.294 0-11.023-4.435-10.654-13.799l19.506-495.689v-0.631c0-33.975 25.577-58.351 53.333-58.351h298.667c27.755 0 53.333 24.375 53.333 58.351v0.631l19.507 495.689c0.367 9.364-6.362 13.799-10.654 13.799h-423.039zM426.667 547.764c17.673 0 32-14.327 32-32.001v-271.057c0-17.673-14.327-32-32-32s-32 14.327-32 32v271.057c0 17.675 14.327 32.001 32 32.001zM597.333 547.764c17.673 0 32-14.327 32-32.001v-271.057c0-17.673-14.327-32-32-32s-32 14.327-32 32v271.057c0 17.675 14.327 32.001 32 32.001z" />
<glyph unicode="&#xe93d;" glyph-name="trash-02" d="M352 786.824c0 40.876 31.731 77.176 74.667 77.176h170.667c42.935 0 74.667-36.301 74.667-77.176v-45.177c0-4.46-0.38-8.866-1.105-13.176h182.438c17.673 0 32-14.327 32-32s-14.327-32-32-32h-54.438c0.725-4.31 1.105-8.716 1.105-13.176v-496.943c0-65.822-50.833-122.351-117.333-122.351h-341.333c-66.5 0-117.333 56.529-117.333 122.351v496.943c0 4.46 0.378 8.866 1.107 13.176h-54.44c-17.673 0-32 14.327-32 32s14.327 32 32 32h182.44c-0.729 4.31-1.107 8.716-1.107 13.176v45.177zM298.667 664.471c-4.192 0-10.667-4.151-10.667-13.176v-496.943c0-33.975 25.577-58.351 53.333-58.351h341.333c27.755 0 53.333 24.375 53.333 58.351v496.943c0 9.025-6.473 13.176-10.667 13.176h-426.667zM426.667 800c-4.192 0-10.667-4.151-10.667-13.176v-45.177c0-9.025 6.474-13.176 10.667-13.176h170.667c4.194 0 10.667 4.151 10.667 13.176v45.177c0 9.025-6.473 13.176-10.667 13.176h-170.667zM426.667 547.764c17.673 0 32-14.327 32-32.001v-271.057c0-17.673-14.327-32-32-32s-32 14.327-32 32v271.057c0 17.675 14.327 32.001 32 32.001zM597.333 547.764c17.673 0 32-14.327 32-32.001v-271.057c0-17.673-14.327-32-32-32s-32 14.327-32 32v271.057c0 17.675 14.327 32.001 32 32.001z" />
<glyph unicode="&#xe93e;" glyph-name="trash-03" d="M352 832c0 17.673 14.327 32 32 32h256c17.673 0 32-14.327 32-32s-14.327-32-32-32h-256c-17.673 0-32 14.327-32 32zM138.667 696.471c0 17.673 14.327 32 32 32h682.667c17.673 0 32-14.327 32-32s-14.327-32-32-32h-56.26c0.9-5.323 1.267-10.788 1.050-16.316l-19.456-494.478c-0.35-65.536-51.059-121.677-117.333-121.677h-298.667c-66.273 0-116.986 56.141-117.332 121.677l-19.459 494.478c-0.218 5.528 0.149 10.993 1.051 16.316h-56.261c-17.673 0-32 14.327-32 32zM300.481 664.471c-4.294 0-11.023-4.435-10.654-13.799l19.506-495.689v-0.631c0-33.975 25.577-58.351 53.333-58.351h298.667c27.755 0 53.333 24.375 53.333 58.351v0.631l19.507 495.689c0.367 9.364-6.362 13.799-10.654 13.799h-423.039z" />
<glyph unicode="&#xe93f;" glyph-name="upload-03" d="M489.425 854.648c12.493 12.469 32.721 12.469 45.214 0l195.046-194.696c12.51-12.486 12.527-32.747 0.043-45.255s-32.747-12.527-45.257-0.041l-140.442 140.187v-432.39c0-17.673-14.323-32-32-32-17.673 0-32 14.327-32 32v432.39l-140.439-140.187c-12.508-12.486-32.77-12.467-45.255 0.041s-12.467 32.769 0.041 45.255l195.048 194.696zM170.667 343.279c17.673 0 32-14.327 32-32v-157.359c0-15.885 6.004-30.805 16.205-41.557 10.147-10.692 23.54-16.363 37.128-16.363h512c13.589 0 26.982 5.67 37.129 16.363 10.202 10.752 16.205 25.673 16.205 41.557v157.359c0 17.673 14.327 32 32 32s32-14.327 32-32v-157.359c0-31.812-11.977-62.635-33.783-85.611-21.858-23.036-51.874-36.309-83.55-36.309h-512c-31.675 0-61.692 13.274-83.552 36.309-21.805 22.976-33.782 53.798-33.782 85.611v157.359c0 17.673 14.327 32 32 32z" />
<glyph unicode="&#xe940;" glyph-name="user-profile-01" d="M512.009 825.599c-67.162 0-121.602-54.442-121.602-121.6s54.44-121.6 121.602-121.6c67.157 0 121.6 54.442 121.6 121.6s-54.443 121.6-121.6 121.6zM326.407 703.999c0 102.504 83.096 185.6 185.602 185.6 102.502 0 185.6-83.096 185.6-185.6s-83.098-185.599-185.6-185.599c-102.506 0-185.602 83.095-185.602 185.599zM121.624 192.021c0.012 102.494 83.104 185.579 185.6 185.579h409.568c102.511 0 185.613-83.106 185.6-185.617l-0.013-153.587c0-17.673-14.327-32-32.004-31.996-17.673 0-31.996 14.327-31.996 32l0.013 153.587c0.009 67.162-54.438 121.613-121.6 121.613h-409.568c-67.152 0-121.592-54.434-121.6-121.587l-0.017-153.617c-0.002-17.673-14.33-32-32.004-31.996-17.673 0-31.998 14.327-31.996 32.004l0.017 153.617z" />
<glyph unicode="&#xe941;" glyph-name="users-profiles-01" d="M395.937 781.693c-58.063 0-105.133-47.069-105.133-105.133s47.070-105.133 105.133-105.133c58.062 0 105.132 47.070 105.132 105.133s-47.070 105.133-105.132 105.133zM226.804 676.56c0 93.41 75.724 169.133 169.133 169.133 93.411 0 169.132-75.724 169.132-169.133s-75.721-169.134-169.132-169.134c-93.41 0-169.133 75.724-169.133 169.134zM631.637 805.821c10.534 14.193 30.575 17.161 44.77 6.631 41.459-30.764 68.433-80.185 68.433-135.899s-26.974-105.135-68.433-135.899c-14.195-10.533-34.236-7.563-44.77 6.631-10.53 14.193-7.561 34.235 6.635 44.766 25.89 19.211 42.569 49.905 42.569 84.502s-16.678 65.291-42.569 84.502c-14.195 10.531-17.165 30.574-6.635 44.767zM70.417 219.469c0.010 93.402 75.731 169.114 169.133 169.114h307.083c93.414 0 169.139-75.733 169.131-169.148l-0.013-137.122c0-17.673-14.327-31.996-32-31.996s-32 14.327-32 32.004l0.013 137.118c0.004 58.069-47.066 105.143-105.131 105.143h-307.083c-58.059 0-105.126-47.061-105.133-105.122l-0.016-137.148c-0.002-17.673-14.33-32-32.003-31.996-17.673 0-31.998 14.332-31.997 32.004l0.016 137.148zM752.469 356.574c0 17.673 14.327 32 32 32 93.414 0 169.139-75.733 169.131-169.148l-0.013-137.118c0-17.677-14.327-32-32-32-17.673 0.004-32 14.332-32 32.004l0.013 137.122c0.004 58.065-47.066 105.139-105.131 105.139-17.673 0-32 14.327-32 32z" />
<glyph unicode="&#xe942;" glyph-name="users-profiles-03" d="M412.294 681.25c-52.644 0-95.32-42.676-95.32-95.32s42.676-95.319 95.32-95.319c52.645 0 95.32 42.675 95.32 95.319s-42.675 95.32-95.32 95.32zM252.973 585.93c0 87.99 71.33 159.32 159.32 159.32s159.32-71.33 159.32-159.32c0-87.988-71.33-159.319-159.32-159.319s-159.32 71.33-159.32 159.319zM635.379 713.289c8.375 15.564 27.776 21.394 43.341 13.021 49.899-26.841 83.93-79.613 83.93-140.382 0-59.012-32.098-110.49-79.637-137.988-15.296-8.849-34.871-3.618-43.721 11.678s-3.622 34.871 11.678 43.721c28.574 16.533 47.68 47.348 47.68 82.59 0 36.288-20.267 67.89-50.249 84.020-15.565 8.372-21.393 27.777-13.022 43.341zM723.217 388.049c7.906 15.804 27.127 22.212 42.935 14.31 44.369-22.187 79.39-45.239 109.111-74.961s52.774-64.742 74.957-109.111c7.906-15.808 1.498-35.029-14.31-42.931-15.808-7.906-35.029-1.498-42.931 14.31-20.254 40.508-39.642 69.15-62.972 92.476-23.326 23.33-51.968 42.718-92.48 62.972-15.804 7.906-22.212 27.127-14.31 42.935zM74.955 199.202c54.816 91.435 170.767 147.247 337.338 147.247 166.574 0 282.52-55.812 337.338-147.247 9.088-15.155 4.169-34.812-10.991-43.9s-34.812-4.164-43.9 10.991c-38.933 64.943-128.457 116.156-282.448 116.156s-243.513-51.213-282.447-116.156c-9.088-15.155-28.742-20.079-43.9-10.991s-20.079 28.745-10.991 43.9z" />
<glyph unicode="&#xe943;" glyph-name="x-01" d="M148.039 811.961c12.497 12.497 32.758 12.497 45.255 0l318.706-318.704 318.707 318.704c12.497 12.497 32.755 12.497 45.252 0s12.497-32.758 0-45.255l-318.703-318.706 318.703-318.707c12.497-12.497 12.497-32.755 0-45.252s-32.755-12.497-45.252 0l-318.707 318.703-318.706-318.703c-12.497-12.497-32.758-12.497-45.255 0s-12.497 32.755 0 45.252l318.704 318.707-318.704 318.706c-12.497 12.497-12.497 32.758 0 45.255z" />
<glyph unicode="&#xe944;" glyph-name="x-02" d="M233.373 726.627c12.497 12.497 32.758 12.497 45.255 0l233.373-233.371 233.374 233.371c12.497 12.497 32.755 12.497 45.252 0s12.497-32.758 0-45.255l-233.37-233.373 233.37-233.374c12.497-12.497 12.497-32.755 0-45.252s-32.755-12.497-45.252 0l-233.374 233.37-233.373-233.37c-12.497-12.497-32.758-12.497-45.255 0s-12.497 32.755 0 45.252l233.371 233.374-233.371 233.373c-12.497 12.497-12.497 32.758 0 45.255z" />
<glyph unicode="&#xe945;" glyph-name="x-03" d="M318.706 641.294c12.497 12.497 32.758 12.497 45.255 0l148.039-148.038 148.041 148.038c12.497 12.497 32.755 12.497 45.252 0s12.497-32.758 0-45.255l-148.036-148.039 148.036-148.041c12.497-12.497 12.497-32.755 0-45.252s-32.755-12.497-45.252 0l-148.041 148.036-148.039-148.036c-12.497-12.497-32.758-12.497-45.255 0s-12.497 32.755 0 45.252l148.038 148.041-148.038 148.039c-12.497 12.497-12.497 32.758 0 45.255z" />
<glyph unicode="&#xe946;" glyph-name="x-circle-contained" d="M512 800c-194.404 0-352-157.596-352-352 0-194.402 157.596-352 352-352 194.402 0 352 157.598 352 352 0 194.404-157.598 352-352 352zM96 448c0 229.751 186.249 416 416 416s416-186.249 416-416c0-229.751-186.249-416-416-416s-416 186.249-416 416zM353.608 606.392c12.497 12.497 32.758 12.497 45.255 0l113.137-113.135 113.139 113.135c12.493 12.497 32.755 12.497 45.252 0s12.497-32.758 0-45.255l-113.135-113.137 113.135-113.139c12.497-12.493 12.497-32.755 0-45.252s-32.759-12.497-45.252 0l-113.139 113.135-113.137-113.135c-12.497-12.497-32.758-12.497-45.255 0s-12.497 32.759 0 45.252l113.135 113.139-113.135 113.137c-12.497 12.497-12.497 32.758 0 45.255z" />
<glyph unicode="&#xe947;" glyph-name="bell-ringing-04" d="M646.332 754.851c13.747-11.106 33.899-8.965 45.005 4.782s8.964 33.895-4.783 45.001c-50.21 40.563-113.297 60.528-177.361 59.313-17.673-0.335-31.723-14.931-31.39-32.601 0.337-17.67 14.933-31.722 32.602-31.387 50.095 0.951 98.244-14.665 135.927-45.108zM387.172 759.852c-14.004 24.401-44.851 32.615-68.906 18.644-24.167-14.036-32.592-45.293-18.524-69.805 14.004-24.401 44.851-32.614 68.906-18.644 24.167 14.036 32.592 45.292 18.524 69.804zM457.527 723.934c121.233 24.65 249.873-29.816 315.213-143.663l36.105-64.811c22.677-39.411 57.331-63.603 87.151-76.992 20.041-9.003 29.589-28.224 31.569-44.348 1.984-16.154-2.778-39.228-24.299-51.729l-190.839-110.839c20.403-66.53-10.355-140.821-73.634-177.574-63.275-36.745-142.707-26.458-189.909 24.508l-47.651-27.674c-21.965-12.757-44.671-4.855-57.619 5.197-12.942 10.052-24.675 28.343-21.948 50.406 4.113 33.263 1.193 75.558-21.119 114.436l-38.028 68.16c-64.184 112.004-47.206 248.863 33.007 340.793-20.828 9.619-38.985 25.589-51.291 47.030-31.509 54.902-12.886 125.191 41.888 157.004 54.888 31.879 124.984 12.883 156.556-42.129 12.237-21.322 16.913-44.966 14.848-67.775zM654.131 197.696l-147.136-85.457c26.624-19.426 65.425-22.797 99.652-2.918 34.214 19.874 50.795 55.403 47.484 88.375zM400.791 634.705c-108.667-63.114-146.003-203.652-82.665-314.014l0.194-0.337h-0.002l37.836-67.819c26.901-46.967 32.917-96.171 30.64-136.098l467.218 271.36c-34.923 18.509-73.754 48.9-100.77 95.974l-0.205 0.358-35.904 64.454c-64.38 111.966-206.016 150.197-316.342 86.121zM179.711 658.181c-15.063 9.244-34.767 4.527-44.011-10.536-33.857-55.17-45.836-120.468-36.783-184.024 2.492-17.498 18.697-29.662 36.193-27.166 17.496 2.492 29.66 18.697 27.168 36.19-7.097 49.822 2.437 99.92 27.969 141.525 9.244 15.063 4.527 34.767-10.536 44.011z" />
<glyph unicode="&#xe948;" glyph-name="open-new-window" d="M597.333 757.333c-17.673 0-32 14.327-32 32s14.327 32 32 32h256c4.339 0 8.478-0.864 12.25-2.428 3.746-1.55 7.258-3.842 10.308-6.877l0.137-0.136c3.034-3.052 5.329-6.564 6.878-10.31 1.566-3.773 2.428-7.91 2.428-12.249v-256c0-17.673-14.327-32-32-32s-32 14.327-32 32v178.745l-329.374-329.371c-12.497-12.497-32.755-12.497-45.252 0s-12.497 32.755 0 45.252l329.37 329.374h-178.743zM246.519 757.333c-24.219 0-43.852-19.633-43.852-43.852v-530.962c0-24.222 19.633-43.853 43.852-43.853h530.962c24.222 0 43.853 19.631 43.853 43.853v227.554c0 17.673 14.327 32 32 32s32-14.327 32-32v-227.554c0-59.567-48.286-107.853-107.853-107.853h-530.962c-59.565 0-107.852 48.286-107.852 107.853v530.962c0 59.565 48.287 107.852 107.852 107.852h227.555c17.673 0 32-14.327 32-32s-14.327-32-32-32h-227.555z" />
<glyph unicode="&#xe949;" glyph-name="layout-grid-01" d="M256.001 825.599c-67.158 0-121.6-54.442-121.6-121.6v-223.999h345.599v345.599h-223.999zM544 825.599v-345.599h345.6v223.999c0 67.158-54.443 121.6-121.6 121.6h-224zM889.6 416h-345.6v-345.6h224c67.157 0 121.6 54.443 121.6 121.6v224zM480 70.4v345.6h-345.599v-224c0-67.157 54.442-121.6 121.6-121.6h223.999zM70.401 703.999c0 102.504 83.096 185.6 185.6 185.6h511.999c102.507 0 185.6-83.096 185.6-185.6v-511.999c0-102.507-83.093-185.6-185.6-185.6h-511.999c-102.504 0-185.6 83.093-185.6 185.6v511.999z" />
<glyph unicode="&#xe94a;" glyph-name="target-04" d="M512 800c-194.404 0-352-157.596-352-352 0-194.402 157.596-352 352-352 194.402 0 352 157.598 352 352 0 194.404-157.598 352-352 352zM96 448c0 229.751 186.249 416 416 416s416-186.249 416-416c0-229.751-186.249-416-416-416s-416 186.249-416 416zM512 608c-88.366 0-160-71.634-160-160s71.634-160 160-160c88.367 0 160 71.633 160 160s-71.633 160-160 160zM288 448c0 123.712 100.288 224 224 224s224-100.288 224-224c0-123.712-100.288-224-224-224s-224 100.288-224 224zM480 448c0 17.673 14.327 32 32 32h3.401c17.673 0 32-14.327 32-32v-3.076c0-17.673-14.327-32-32-32h-3.401c-17.673 0-32 14.327-32 32v3.076z" />
<glyph unicode="&#xe94b;" glyph-name="alert-circle" d="M512 800c-194.404 0-352-157.596-352-352 0-194.402 157.596-352 352-352 194.402 0 352 157.598 352 352 0 194.404-157.598 352-352 352zM96 448c0 229.751 186.249 416 416 416s416-186.249 416-416c0-229.751-186.249-416-416-416s-416 186.249-416 416zM512 672c17.673 0 32-14.327 32-32v-192c0-17.673-14.327-32-32-32s-32 14.327-32 32v192c0 17.673 14.327 32 32 32zM512 337.69c17.673 0 32-14.327 32-32v-1.69c0-17.673-14.327-32-32-32s-32 14.327-32 32v1.69c0 17.673 14.327 32 32 32z" />
<glyph unicode="&#xe94c;" glyph-name="book-03" d="M128.914 740.57c0 82.306 66.723 149.029 149.029 149.029h526.627c82.308 0 149.030-66.723 149.030-149.029v-585.144c0-82.304-66.722-149.026-149.030-149.026h-526.627c-82.306 0-149.029 66.722-149.029 149.026v143.543h-26.514c-17.673 0-32 14.327-32 32s14.327 32 32 32h26.514v111.543h-26.514c-17.673 0-32 14.327-32 32s14.327 32 32 32h26.514v111.543h-26.514c-17.673 0-32 14.327-32 32s14.327 32 32 32h26.514v26.514zM192.914 650.056h26.514c17.673 0 32 14.327 32 32s-14.327 32-32 32h-26.514v26.514c0 46.96 38.068 85.029 85.029 85.029h55.771v-755.199h-55.771c-46.96 0-85.029 38.067-85.029 85.026v143.543h26.514c17.673 0 32 14.327 32 32s-14.327 32-32 32h-26.514v111.543h26.514c17.673 0 32 14.327 32 32s-14.327 32-32 32h-26.514v111.543zM397.714 70.4h406.856c46.963 0 85.030 38.067 85.030 85.026v585.144c0 46.96-38.067 85.029-85.030 85.029h-406.856v-755.199zM509.257 682.056c0 17.673 14.327 32 32 32h204.8c17.673 0 32-14.327 32-32s-14.327-32-32-32h-204.8c-17.673 0-32 14.327-32 32zM509.257 506.513c0 17.673 14.327 32 32 32h204.8c17.673 0 32-14.328 32-32s-14.327-32-32-32h-204.8c-17.673 0-32 14.327-32 32z" />
<glyph unicode="&#xe94e;" glyph-name="layout-04" d="M70.4 703.999c0 102.504 83.096 185.6 185.6 185.6h512c102.502 0 185.6-83.096 185.6-185.6v-511.999c0-102.507-83.098-185.6-185.6-185.6h-512c-102.504 0-185.6 83.093-185.6 185.6v511.999zM256 825.599c-67.158 0-121.6-54.442-121.6-121.6v-44.8h755.2v44.8c0 67.158-54.443 121.6-121.6 121.6h-512zM889.6 595.199h-755.2v-403.199c0-67.157 54.442-121.6 121.6-121.6h512c67.157 0 121.6 54.443 121.6 121.6v403.199zM224 448c0 17.673 14.327 32 32 32h512c17.673 0 32-14.327 32-32s-14.327-32-32-32h-512c-17.673 0-32 14.327-32 32zM224 243.2c0 17.673 14.327 32 32 32h307.2c17.673 0 32-14.327 32-32s-14.327-32-32-32h-307.2c-17.673 0-32 14.327-32 32z" />
<glyph unicode="&#xe94f;" glyph-name="union" d="M477.867 825.599c-38.878 0-70.399-31.519-70.399-70.4v-170.667c0-8.487-3.371-16.626-9.373-22.627s-14.14-9.373-22.627-9.373h-170.666c-38.881 0-70.4-31.521-70.4-70.399v-341.333c0-38.882 31.519-70.4 70.4-70.4h341.332c38.882 0 70.4 31.518 70.4 70.4v170.667c0 17.673 14.327 32 32 32h170.667c38.882 0 70.4 31.518 70.4 70.4v341.332c0 38.881-31.518 70.4-70.4 70.4h-341.333zM343.468 755.199c0 74.227 60.173 134.4 134.399 134.4h341.333c74.227 0 134.4-60.173 134.4-134.4v-341.332c0-74.227-60.173-134.4-134.4-134.4h-138.667v-138.667c0-74.227-60.173-134.4-134.4-134.4h-341.329c-74.227 0-134.403 60.173-134.403 134.4v341.333c0 74.226 60.173 134.399 134.4 134.399h138.666v138.667z" />
<glyph unicode="&#xe950;" glyph-name="calendar-07" d="M276.698 888c17.673 0 32-14.327 32-32v-37.943h397.968v37.943c0 17.673 14.327 32 32 32s32-14.327 32-32v-39.73c76.979-11.58 136-78.004 136-158.212v-490.057c0-88.367-71.633-160-160-160h-469.333c-88.366 0-160 71.633-160 160v490.057c0 77.182 54.65 141.6 127.365 156.669v41.273c0 17.673 14.327 32 32 32zM276.271 754.052c-52.53-0.57-94.938-43.33-94.938-95.994v-490.057c0-53.018 42.981-96 96-96h469.333c53.018 0 96 42.982 96 96v490.057c0 53.019-42.982 96-96 96h-469.221c-0.249-0.006-0.498-0.009-0.748-0.009-0.143 0-0.285 0.001-0.428 0.003zM272.762 622.858c0 17.673 14.327 32 32 32h411.236c17.677 0 32-14.327 32-32s-14.323-32-32-32h-411.236c-17.673 0-32 14.327-32 32z" />
<glyph unicode="&#xe951;" glyph-name="bullet-number1" d="M497.783 277.333h-69.888v307.627l-65.108-67.499-40.619 42.411 114.687 115.883h60.928v-398.421zM640 490.667h85.333v-85.333h-85.333v85.333z" />
<glyph unicode="&#xe952;" glyph-name="bullet-square1" d="M426.667 533.333h170.667v-170.667h-170.667v170.667z" />
</font>
</defs>
</svg>
